+ ShareSpark.net »  :::: Dubbed Zone (Dubbed English in Hindi) » English Movies Dubbed in Hindi » HEVC / H.265 Releases
|- San Andreas (2015) 1080p HEVC H265 Dual Audio [Hindi DD 5.1 448 Kbps - English DD 5.1 448 Kbps


Samsung Galaxy 8

San Andreas (2015) 1080p HEVC H265 Dual Audio [Hindi DD 5.1 448 Kbps - English DD 5.1 448 Kbps

0 Members and 1 Guest are viewing this topic.

August 09, 2018, 03:57:57 PM
  • ***************
  • Team SSX
  • Legend Member
  • ***
  • Topic Author
  • Thank You: 1846
  • Reputation: 553
  • Activity:
    100%
  • Country: pk
  • Posts: 1965
  • Topics: 1248
  • Join Date: Mar 2015
  • =$ Success Never Ends $=
San Andreas (2015) 1080p HEVC H265 Dual Audio [Hindi DD 5.1 448 Kbps - English DD 5.1 448 Kbps


















General
Format : Matroska
Format version : Version 4 / Version 2
File size : 2.50 GiB
Duration : 1 h 54 min
Overall bit rate : 3 124 kb/s
Movie name : San Andreas (2015) 1080p HEVC H265 Dual Audio [Hindi DD 5.1 448 Kbps - English DD 5.1 448 Kbps].mkv
Encoded date : UTC 2018-08-07 15:20:17
Writing application : mkvmerge v25.0.0 ('Prog Noir') 64-bit
Writing library : libebml v1.3.6 + libmatroska v1.4.9



Video
ID : 1
Format : HEVC
Format/Info : High Efficiency Video Coding
Format profile : Main [email protected]@Main
Codec ID : V_MPEGH/ISO/HEVC
Duration : 1 h 54 min
Bit rate : 2 221 kb/s
Width : 1 920 pixels
Height : 800 pixels
Display aspect ratio : 2.40:1
Frame rate mode : Constant
Frame rate : 23.976 (24000/1001) FPS
Color space : YUV
Chroma subsampling : 4:2:0
Bit depth : 10 bits
Bits/(Pixel*Frame) : 0.060
Stream size : 1.78 GiB (71%)
Title : San Andreas (2015) 1080p HEVC H265 Dual Audio [Hindi DD 5.1 448 Kbps - English DD 5.1 448 Kbps].mkv
Language : Hindi
Default : Yes
Forced : No
Color range : Limited
Color primaries : BT.709
Transfer characteristics : BT.709
Matrix coefficients : BT.709


Audio #1
ID : 2
Format : AC-3
Format/Info : Audio Coding 3
Codec ID : A_AC3
Duration : 1 h 54 min
Bit rate mode : Constant
Bit rate : 448 kb/s
Channel(s) : 6 channels
Channel positions : Front: L C R, Side: L R, LFE
Sampling rate : 48.0 kHz
Frame rate : 31.250 FPS (1536 SPF)
Bit depth : 16 bits
Compression mode : Lossy
Stream size : 367 MiB (14%)
Title : [Hindi DD 5.1 448 Kbps]
Language : Hindi
Service kind : Complete Main
Default : Yes
Forced : No


Audio #2
ID : 3
Format : AC-3
Format/Info : Audio Coding 3
Codec ID : A_AC3
Duration : 1 h 54 min
Bit rate mode : Constant
Bit rate : 448 kb/s
Channel(s) : 6 channels
Channel positions : Front: L C R, Side: L R, LFE
Sampling rate : 48.0 kHz
Frame rate : 31.250 FPS (1536 SPF)
Bit depth : 16 bits
Compression mode : Lossy
Stream size : 367 MiB (14%)
Title : [English DD 5.1 448 Kbps]
Language : English
Service kind : Complete Main
Default : No
Forced : No


Text
ID : 4
Format : VobSub
Muxing mode : zlib
Codec ID : S_VOBSUB
Codec ID/Info : Picture based subtitle format used on DVDs
Duration : 1 h 52 min
Bit rate : 8 374 b/s
Count of elements : 1489
Stream size : 6.76 MiB (0%)
Title : [Vob Sub]
Language : English
Default : Yes
Forced : No


Menu
00:00:00.000 : en:(01)00:00:00:000
00:09:29.944 : en:(02)00:09:29:944
00:18:47.209 : en:(03)00:18:47:209
00:30:10.099 : en:(04)00:30:10:099
00:40:08.823 : en:(05)00:40:08:823
00:50:18.098 : en:(06)00:50:18:098
00:59:44.497 : en:(07)00:59:44:497
01:11:27.366 : en:(08)01:11:27:366
01:19:43.612 : en:(09)01:19:43:612
01:30:40.810 : en:(10)01:30:40:810
01:39:56.490 : en:(11)01:39:56:490
01:47:10.924 : en:(12)01:47:10:924
01:54:28.361 : en:(13)01:54:28:361



 :ss:













 :download:




















Share this topic on FacebookShare this topic on GoogleShare this topic on MySpaceShare this topic on TwitterShare this topic on Yahoo



Thanks given by:


November 04, 2018, 07:18:53 PM
Reply #1
  • Devoted Member
  • **
  • Thank You: 0
  • Reputation: 6
  • Activity:
    22.4%
  • Country: in
  • Posts: 134
  • Topics: 0
  • Join Date: Oct 2016
  • ShareSpark Member

Tags:
 

Related Topics





Back to top