+ ShareSpark.net »  :::: Dubbed Zone (Dubbed English in Hindi) » English Movies Dubbed in Hindi
|- John Carpenter's Vampires 1998 x264 720p Esub BluRay Dual Audio English Hindi GOPISAHI


100% DTH Offer

John Carpenter's Vampires 1998 x264 720p Esub BluRay Dual Audio English Hindi GOPISAHI

0 Members and 1 Guest are viewing this topic.

October 24, 2018, 12:27:15 PM
  • ***************
  • Team SSX
  • Legend Member
  • ***
  • Topic Author
  • Thank You: 1846
  • Reputation: 553
  • Activity:
    100%
  • Country: pk
  • Posts: 1965
  • Topics: 1248
  • Join Date: Mar 2015
  • =$ Success Never Ends $=
John Carpenter's Vampires 1998 x264 720p Esub BluRay Dual Audio English Hindi GOPISAHI









Format : Matroska
Format version : Version 4 / Version 2
File size : 765 MiB
Duration : 1 h 47 min
Overall bit rate : 992 kb/s
Movie name : John Carpenter's Vampires 1998 GOPISAHI

Video
Format : AVC
Format/Info : Advanced Video Codec
Codec ID : V_MPEG4/ISO/AVC
Duration : 1 h 47 min
Bit rate : 799 kb/s
Width : 1 280 pixels
Height : 534 pixels
Display aspect ratio : 2.40:1
Original display aspect ratio : 2.40:1
Frame rate mode : Constant
Frame rate : 24.000 FPS
Color space : YUV
Chroma subsampling : 4:2:0
Bit depth : 8 bits
Scan type : Progressive
Bits/(Pixel*Frame) : 0.049
Stream size : 616 MiB (80%)
Title : GOPISAHI
Writing library : x264 core 155 r2901 7d0ff22

Audio #1
Format : AAC
Duration : 1 h 43 min
Bit rate : 96.0 kb/s
Channel(s) : 2 channels
Channel positions : Front: L R
Sampling rate : 48.0 kHz
Frame rate : 46.875 FPS (1024 SPF)
Compression mode : Lossy
Delay relative to video : -21 ms
Stream size : 71.4 MiB (9%)
Title : GOPISAHI
Language : Hindi

Audio #2
Format : AAC
Duration : 1 h 47 min
Bit rate : 64.2 kb/s
Channel(s) : 2 channels
Channel positions : Front: L R
Sampling rate : 48.0 kHz
Frame rate : 46.875 FPS (1024 SPF)
Compression mode : Lossy
Delay relative to video : -21 ms
Stream size : 49.5 MiB (6%)
Title : GOPISAHI
Language : Telugu

Audio #3
Format : AAC
Duration : 1 h 43 min
Bit rate : 35.0 kb/s
Channel(s) : 2 channels
Channel positions : Front: L R
Sampling rate : 44.1 kHz / 22.05 kHz
Frame rate : 21.533 FPS (1024 SPF)
Compression mode : Lossy
Delay relative to video : 12 ms
Stream size : 26.0 MiB (3%)
Title : GOPISAHI
Language : English

Text
Language : English




 :ss:













 :download:



























Share this topic on FacebookShare this topic on GoogleShare this topic on MySpaceShare this topic on TwitterShare this topic on Yahoo



Thanks given by:


Tags:
 

Related Topics





Back to top