+ ShareSpark.net »  :::: Dubbed Zone (Dubbed English in Hindi) » English Movies Dubbed in Hindi
|- SkyScraper (2018) 720p BluRay x264 Dual Audio [Hindi DDP5.1 - English DD5.1] - MSUBS ~ Ranvijay


10% SBI and 10% Discount

SkyScraper (2018) 720p BluRay x264 Dual Audio [Hindi DDP5.1 - English DD5.1] - MSUBS ~ Ranvijay

0 Members and 1 Guest are viewing this topic.

October 27, 2018, 11:27:05 PM
  • Global Moderator
  • Legend Member
  • *****
  • Topic Author
  • Thank You: 11373
  • Reputation: 2282
  • Activity:
    100%
  • Country: in
  • Posts: 5510
  • Topics: 4535
  • Join Date: Jan 2014
  • ıllıllı ѕмoĸιng ιѕ good ғor нealтн ıllıllı :)






SkyScraper (2018) 720p BluRay x264 Dual Audio [Hindi DDP5.1 - English DD5.1] - MSUBS ~ Ranvijay


Thanks To Hammer For Hindi Audio

Buy RDP Online




Quote

Format                                   : Matroska
Format version                           : Version 4 / Version 2
File size                                : 1.86 GiB
Duration                                 : 1 h 42 min
Overall bit rate                         : 2 607 kb/s
Movie name                               : SkyScraper (2018) 720p BluRay x264 Dual Audio [Hindi DD5.1 - English DD5.1] - MSUBS ~ Ranvijay

Video
ID                                       : 1
Format                                   : AVC
Format/Info                              : Advanced Video Codec
Duration                                 : 1 h 42 min
Bit rate                                 : 1 574 kb/s
Width                                    : 1 280 pixels
Height                                   : 536 pixels
Display aspect ratio                     : 2.40:1
Frame rate mode                          : Constant
Frame rate                               : 23.976 (24000/1001) FPS
Color space                              : YUV
Chroma subsampling                       : 4:2:0
Bit depth                                : 8 bits
Scan type                                : Progressive
Bits/(Pixel*Frame)                       : 0.096
Stream size                              : 1.12 GiB (60%)
Title                                    : ~Ranvijay~

Audio #1
ID                                       : 2
Format                                   : E-AC-3
Format/Info                              : Enhanced Audio Coding 3
Codec ID                                 : A_EAC3
Duration                                 : 1 h 42 min
Bit rate mode                            : Constant
Bit rate                                 : 500 b/s
Channel(s)                               : 6 channels
Channel positions                        : Front: L C R, Side: L R, LFE
Sampling rate                            : 48.0 kHz
Frame rate                               : 187.500 FPS (256 SPF)
Compression mode                         : Lossy
Stream size                              : 563 MiB (29%)
Title                                    : ~Ranvijay~
Language                                 : Hindi
Service kind                             : Complete Main
Default                                  : Yes
Forced                                   : Yes

Audio #2
ID                                       : 3
Format                                   : AC-3
Format/Info                              : Audio Coding 3
Codec ID                                 : A_AC3
Duration                                 : 1 h 42 min
Bit rate mode                            : Constant
Bit rate                                 : 224 kb/s
Channel(s)                               : 6 channels
Channel positions                        : Front: L C R, Side: L R, LFE
Sampling rate                            : 48.0 kHz
Frame rate                               : 31.250 FPS (1536 SPF)
Bit depth                                : 16 bits
Compression mode                         : Lossy
Stream size                              : 164 MiB (9%)
Title                                    : ~Ranvijay~
Language                                 : English
Service kind                             : Complete Main
Default                                  : No
Forced                                   : No

Text #1
ID                                       : 4
Format                                   : PGS
Muxing mode                              : zlib
Codec ID                                 : S_HDMV/PGS
Codec ID/Info                            : Picture based subtitle format used on BDs/HD-DVDs
Duration                                 : 1 h 32 min
Bit rate                                 : 40.0 kb/s
Count of elements                        : 2746
Stream size                              : 26.3 MiB (1%)
Title                                    : ~Ranvijay~
Language                                 : English
Default                                  : Yes
Forced                                   : Yes

Text #2
ID                                       : 5
Format                                   : PGS
Muxing mode                              : zlib
Codec ID                                 : S_HDMV/PGS
Codec ID/Info                            : Picture based subtitle format used on BDs/HD-DVDs
Duration                                 : 1 h 32 min
Bit rate                                 : 78.6 kb/s
Count of elements                        : 3374
Stream size                              : 52.0 MiB (3%)
Title                                    : ~Ranvijay~
Language                                 : English
Default                                  : No
Forced                                   : No

Text #3
ID                                       : 6
Format                                   : PGS
Muxing mode                              : zlib
Codec ID                                 : S_HDMV/PGS
Codec ID/Info                            : Picture based subtitle format used on BDs/HD-DVDs
Duration                                 : 1 h 41 min
Bit rate                                 : 20.8 kb/s
Count of elements                        : 2166
Stream size                              : 15.1 MiB (1%)
Title                                    : ~Ranvijay~
Language                                 : Hindi
Default                                  : No
Forced                                   : No











:download:

Quote

File Leeched & Uploaded From




Don't walk as you are king, walk as you don't care who the king is....!!
Never argue with an idiot. They drag you down to their level and then beat you with experience?

Share this topic on FacebookShare this topic on GoogleShare this topic on MySpaceShare this topic on TwitterShare this topic on Yahoo

« Last Edit: October 28, 2018, 11:36:12 AM by Rάήνίјάч1234 »



Don't walk as you are king, walk as you don't care who the king is....!!

Thanks given by:


October 28, 2018, 11:15:08 AM
Reply #1
  • Elite Forces
  • ****
  • Thank You: 117
  • Reputation: 78
  • Activity:
    2.2%
  • Country: pk
  • Posts: 1149
  • Topics: 325
  • Join Date: Sep 2012
  • ShareSpark Member

October 29, 2018, 06:56:57 AM
Reply #2
  • Semi Newbie
  • **
  • Thank You: 0
  • Reputation: 1
  • Activity:
    3.2%
  • Country: bd
  • Posts: 27
  • Topics: 0
  • Join Date: Jan 2017
  • ShareSpark Member

Tags:
 

Related Topics





Back to top