+ ShareSpark.net »  :::: Dubbed Zone (Dubbed English in Hindi) » English Movies Dubbed in Hindi
|- Ant Man 2015 720p BluRay x264 Dual Audio [Hindi 5.1 - English 2.0] ESub [MW]


100% Bill Offer

Ant Man 2015 720p BluRay x264 Dual Audio [Hindi 5.1 - English 2.0] ESub [MW]

0 Members and 1 Guest are viewing this topic.

October 29, 2018, 03:28:40 PM
  • ***************
  • Team SSX
  • Legend Member
  • ***
  • Topic Author
  • Thank You: 1846
  • Reputation: 553
  • Activity:
    100%
  • Country: pk
  • Posts: 1965
  • Topics: 1248
  • Join Date: Mar 2015
  • =$ Success Never Ends $=
Ant Man 2015 720p BluRay x264 Dual Audio [Hindi 5.1 - English 2.0] ESub [MW]












General
Format : Matroska
Format version : Version 4 / Version 2
File size : 915 MiB
Duration : 1 h 57 min
Overall bit rate : 1 093 kb/s

Video
ID : 1
Format : AVC
Format/Info : Advanced Video Codec
Format profile : [email protected]
Format settings : CABAC / 9 Ref Frames
Format settings, CABAC : Yes
Format settings, RefFrames : 9 frames
Codec ID : V_MPEG4/ISO/AVC
Duration : 1 h 57 min
Bit rate : 770 kb/s
Width : 1 280 pixels
Height : 692 pixels
Display aspect ratio : 1.85:1
Frame rate mode : Constant
Frame rate : 23.976 (24000/1001) FPS
Color space : YUV
Chroma subsampling : 4:2:0
Bit depth : 8 bits
Scan type : Progressive
Bits/(Pixel*Frame) : 0.036
Stream size : 645 MiB (70%)
Writing library : x264 core 142 r2479 dd79a61
Default : Yes
Forced : No

Audio #1
ID : 2
Format : AAC
Format/Info : Advanced Audio Codec
Format profile : LC
Codec ID : A_AAC-2
Duration : 1 h 57 min
Bit rate : 192 kb/s
Channel(s) : 6 channels
Channel positions : Front: L C R, Side: L R, LFE
Sampling rate : 48.0 kHz
Frame rate : 46.875 FPS (1024 SPF)
Compression mode : Lossy
Delay relative to video : 845 ms
Stream size : 160 MiB (18%)
Language : Hindi
Default : Yes
Forced : No

Audio #2
ID : 3
Format : AAC
Format/Info : Advanced Audio Codec
Format profile : LC
Codec ID : A_AAC-2
Duration : 1 h 57 min
Bit rate : 128 kb/s
Channel(s) : 2 channels
Channel positions : Front: L R
Sampling rate : 48.0 kHz
Frame rate : 46.875 FPS (1024 SPF)
Compression mode : Lossy
Stream size : 107 MiB (12%)
Language : English
Default : No
Forced : No

Text
ID : 4
Format : UTF-8
Codec ID : S_TEXT/UTF8
Codec ID/Info : UTF-8 Plain Text
Duration : 1 h 56 min
Bit rate : 57 b/s
Count of elements : 1553
Stream size : 49.4 KiB (0%)
Default : Yes
Forced : No





 :ss:















 :download:



























Share this topic on FacebookShare this topic on GoogleShare this topic on MySpaceShare this topic on TwitterShare this topic on Yahoo



Thanks given by:


Tags:
 

Related Topics





Back to top