+ ShareSpark.net »  :::: Dubbed Zone (Dubbed English in Hindi) » TV Shows (Dubbed in Hindi)
|- Lost in OZ Season 1 720p WEB-RIP X264 Hindi -English DD5.1 - ESUB ~Ranvijay


10% SBI and 10% Discount

Lost in OZ Season 1 720p WEB-RIP X264 Hindi -English DD5.1 - ESUB ~Ranvijay

0 Members and 1 Guest are viewing this topic.

November 03, 2018, 11:57:15 PM
  • Global Moderator
  • Legend Member
  • *****
  • Topic Author
  • Thank You: 10717
  • Reputation: 2163
  • Activity:
    100%
  • Country: in
  • Posts: 5350
  • Topics: 4419
  • Join Date: Jan 2014
  • ıllıllı ѕмoĸιng ιѕ good ғor нealтн ıllıllı :)




Lost in OZ Season 1 720p WEB-RIP X264 Hindi -English DD5.1 - ESUB ~Ranvijay


Thanks To The Punisher For Hindi Audio

Buy RDP Online



Quote

Format                                   : Matroska
Format version                           : Version 4 / Version 2
File size                                : 580 MiB
Duration                                 : 22 min 47 s
Overall bit rate mode                    : Variable
Overall bit rate                         : 3 558 kb/s
Movie name                               : Lost in Oz S01E01 720p WEB-RIP x264 Dual Audio [Hindi - English] DD5.1 - ESUB ~ Ranvijay

Video
ID                                       : 1
Format                                   : AVC
Format/Info                              : Advanced Video Codec
Duration                                 : 22 min 47 s
Bit rate mode                            : Variable
Bit rate                                 : 2 884 kb/s
Maximum bit rate                         : 4 500 kb/s
Width                                    : 1 280 pixels
Height                                   : 720 pixels
Display aspect ratio                     : 16:9
Frame rate mode                          : Constant
Frame rate                               : 23.976 (24000/1001) FPS
Color space                              : YUV
Chroma subsampling                       : 4:2:0
Bit depth                                : 8 bits
Scan type                                : Progressive
Bits/(Pixel*Frame)                       : 0.131
Stream size                              : 470 MiB (81%)
Title                                    : ~Ranvijay~
Default                                  : Yes
Forced                                   : No

Audio #1
ID                                       : 2
Format                                   : AC-3
Format/Info                              : Audio Coding 3
Codec ID                                 : A_AC3
Duration                                 : 22 min 47 s
Bit rate mode                            : Constant
Bit rate                                 : 448 kb/s
Channel(s)                               : 6 channels
Channel positions                        : Front: L C R, Side: L R, LFE
Sampling rate                            : 48.0 kHz
Frame rate                               : 31.250 FPS (1536 SPF)
Bit depth                                : 16 bits
Compression mode                         : Lossy
Stream size                              : 73.0 MiB (13%)
Title                                    : ~Ranvijay~
Language                                 : Hindi
Service kind                             : Complete Main
Default                                  : Yes
Forced                                   : Yes

Audio #2
ID                                       : 3
Format                                   : AC-3
Format/Info                              : Audio Coding 3
Codec ID                                 : A_AC3
Duration                                 : 22 min 47 s
Bit rate mode                            : Constant
Bit rate                                 : 224 kb/s
Channel(s)                               : 6 channels
Channel positions                        : Front: L C R, Side: L R, LFE
Sampling rate                            : 48.0 kHz
Frame rate                               : 31.250 FPS (1536 SPF)
Bit depth                                : 16 bits
Compression mode                         : Lossy
Stream size                              : 36.5 MiB (6%)
Title                                    : ~Ranvijay~
Language                                 : English
Service kind                             : Complete Main
Default                                  : No
Forced                                   : No

Text
ID                                       : 4
Format                                   : UTF-8
Codec ID                                 : S_TEXT/UTF8
Codec ID/Info                            : UTF-8 Plain Text
Duration                                 : 22 min 6 s
Bit rate                                 : 67 b/s
Count of elements                        : 473
Stream size                              : 11.0 KiB (0%)
Title                                    : ~Ranvijay~
Language                                 : English
Default                                  : Yes
Forced                                   : Yes

Menu
00:00:00.000                             : en:Amazon Original
00:00:05.000                             : en:Title Sequence
00:00:18.000                             : en:Dorothy finds a mysterious book
00:04:51.000                             : en:Dorothy arrives in Oz
00:07:03.000                             : en:West finds Dorothy
00:10:39.000                             : en:Dorothy meets the Patchwork Doll
00:12:25.000                             : en:The gang finds some Ozonium
00:14:25.000                             : en:Dorothy finds some Ozonium
00:16:05.000                             : en:Fitz reveals his magic
00:21:41.000                             : en:Dorothy learns about Glinda the Good
00:22:09.000                             : en:End Credits











:download:

Quote















All in One Rar Link

File Leeched & Uploaded From




Don't walk as you are king, walk as you don't care who the king is....!!
Never argue with an idiot. They drag you down to their level and then beat you with experience?

Share this topic on FacebookShare this topic on GoogleShare this topic on MySpaceShare this topic on TwitterShare this topic on Yahoo




Don't walk as you are king, walk as you don't care who the king is....!!

Thanks given by:


Tags:
 

Related Topics





Back to top